Torrenty.pl

Logowanie
Login:
Hasło:
Zarejestruj

Torrent

Thor *2011* [BDRip.XviD-miguel] [Napisy PL]

Produkcja.....: USA
Gatunek.......: Fantasy, Przygodowy, Akcja
Data premiery.: 21.03.2011 [Świat]
Reżyseria.....: Kenneth Branagh
Scenariusz....: Ashley Miller, Zack Stentz
Czas trwania..: 115 min.
More..........: http://www.imdb.com/title/tt0800369
Trailer.......: http://www.imdb.com/video/imdb/vi1431476761
Trailer.......: http://www.youtube.com/watch?v=JOddp-nlNvQ

Opis :
Zrealizowany na podstawie kultowego komiksu o Thorze, władcy pioruna, synu Odyna, wydana została w 1962 roku. Thor, który walczy za pomocą Mjollnira, młota wykonanego z tajemniczego metalu, wygnany zostaje z Asgardu, siedziby najwyższych bogów, na Ziemię. Tutaj pozbawiony zostaje wszystkich swoich boskich atrybutów i jako dr Donald Blake, ma nauczyć się pokory i posłuszeństwa. O swojej przeszłości przypomina sobie dopiero kiedy przez przypadek znajduje Mjollnira. Tak rozpoczyna się jego walka o bezpieczeństwo ludzkości.

Obsada :
Chris Hemsworth ... Thor
Natalie Portman ... Jane Foster
Tom Hiddleston ... Loki
Anthony Hopkins ... Odin
Stellan Skarsgard ... Erik Selvig
Kat Dennings ... Darcy Lewis
Clark Gregg ... Agent Coulson
Idris Elba ... Heimdall
Colm Feore ... King Laufey
Ray Stevenson ... Volstagg
Tadanobu Asano ... Hogun
Josh Dallas ... Fandral
Jaimie Alexander ... Sif
Rene Russo ... Frigga
Adriana Barraza ... Isabel Alvarez

Dane Techniczne :
!!! SAMPLE !!!
Audio.....: Angielskie
Napisy....: Polskie .txt, Angielskie .srt, Greckie .srt, Portugalskie .srt, Hiszpańskie .srt
[ CD1 ]
Format : AVI
Format/Info : Audio Video Interleave
File size : 701 MiB
Duration : 1h 7mn
Overall bit rate : 1 451 Kbps
Writing application : VirtualDubMod 1.5.10.2 (build 2540/release)
Writing library : VirtualDubMod build 2540/release
segm :
Video
ID : 0
Format : MPEG-4 Visual
Format profile : Advanced Simple@L5
Format settings, BVOP : Yes
Format settings, QPel : No
Format settings, GMC : No warppoints
Format settings, Matrix : Default (H.263)
Codec ID : XVID
Codec ID/Hint : XviD
Duration : 1h 7mn
Bit rate : 993 Kbps
Width : 640 pixels
Height : 272 pixels
Display aspect ratio : 2.35:1
Frame rate : 23.976 fps
Color space : YUV
Chroma subsampling : 4:2:0
Bit depth : 8 bits
Scan type : Progressive
Bits/(Pixel*Frame) : 0.238
Stream size : 480 MiB (68%)
Writing library : XviD 1.2.1 (UTC 2008-12-04)
Audio
ID : 1
Format : AC-3
Format/Info : Audio Coding 3
Mode extension : CM (complete main)
Codec ID : 2000
Duration : 1h 7mn
Bit rate mode : Constant
Bit rate : 448 Kbps
Channel(s) : 6 channels
Channel positions : Front: L C R, Side: L R, LFE
Sampling rate : 48.0 KHz
Bit depth : 16 bits
Stream size : 216 MiB (31%)
Alignment : Split accross interleaves
Interleave, duration : 42 ms (1.00 video frame)
Interleave, preload duration : 500 ms
[ CD2 ]
Format : AVI
Format/Info : Audio Video Interleave
File size : 701 MiB
Duration : 47mn 19s
Overall bit rate : 2 071 Kbps
Writing application : VirtualDubMod 1.5.10.2 (build 2540/release)
Writing library : VirtualDubMod build 2540/release
Video
ID : 0
Format : MPEG-4 Visual
Format profile : Advanced Simple@L5
Format settings, BVOP : Yes
Format settings, QPel : No
Format settings, GMC : No warppoints
Format settings, Matrix : Default (H.263)
Codec ID : XVID
Codec ID/Hint : XviD
Duration : 47mn 19s
Bit rate : 1 613 Kbps
Width : 640 pixels
Height : 272 pixels
Display aspect ratio : 2.35:1
Frame rate : 23.976 fps
Color space : YUV
Chroma subsampling : 4:2:0
Bit depth : 8 bits
Scan type : Progressive
Bits/(Pixel*Frame) : 0.387
Stream size : 546 MiB (78%)
Writing library : XviD 1.2.1 (UTC 2008-12-04)
Audio
ID : 1
Format : AC-3
Format/Info : Audio Coding 3
Mode extension : CM (complete main)
Codec ID : 2000
Duration : 47mn 19s
Bit rate mode : Constant
Bit rate : 448 Kbps
Channel(s) : 6 channels
Channel positions : Front: L C R, Side: L R, LFE
Sampling rate : 48.0 KHz
Bit depth : 16 bits
Video delay : 3ms
Stream size : 152 MiB (22%)
Alignment : Split accross interleaves
Interleave, duration : 42 ms (1.00 video frame)
Interleave, preload duration : 500 ms

Screen :
http://img832.imageshack.us/img832/4928/thor2011s1.jpg
http://img217.imageshack.us/img217/2876/thor2011s2.jpg
http://img269.imageshack.us/img269/8004/thor2011s3.jpg
http://img689.imageshack.us/img689/5701/thor2011s4.jpg
http://img830.imageshack.us/img830/6727/thor2011s5.jpg

Galeria:
  • Open.txt(18.72 kB)
  • Sample.avi(3.94 MB)
  • Thor 2011 [CD1] [BDRip.XviD-miguel] [ENG].avi(700.53 MB)
  • Thor 2011 [CD1] [BDRip.XviD-miguel] [English].srt(54.4 kB)
  • Thor 2011 [CD1] [BDRip.XviD-miguel] [Greece].srt(54.38 kB)
  • Thor 2011 [CD1] [BDRip.XviD-miguel] [Polish].txt(25.69 kB)
  • Thor 2011 [CD1] [BDRip.XviD-miguel] [Portugese].srt(46.81 kB)
  • Thor 2011 [CD1] [BDRip.XviD-miguel] [Spanish].srt(49.01 kB)
  • Thor 2011 [CD2] [BDRip.XviD-miguel] [ENG].avi(700.99 MB)
  • Thor 2011 [CD2] [BDRip.XviD-miguel] [English].srt(27.41 kB)
  • Thor 2011 [CD2] [BDRip.XviD-miguel] [Greece].srt(30.47 kB)
  • Thor 2011 [CD2] [BDRip.XviD-miguel] [Polish].txt(12.98 kB)
  • Thor 2011 [CD2] [BDRip.XviD-miguel] [Portuguese].srt(23.57 kB)
  • Thor 2011 [CD2] [BDRip.XviD-miguel] [Spanish].srt(24.5 kB)
Pliki:
  • http://tracker.torrenty.org:6969/announce
  • http://9.rarbg.com:2710/announce
  • http://tracker.publicbt.com:80/announce
  • http://tracker.openbittorrent.com/announce
  • http://tracker.torrent.to:2710/announce
  • http://exodus.1337x.org/announce
  • http://pow7.com:80/announce
  • http://fr33dom.h33t.com:3310/announce
  • http://10.rarbg.com:80/announce
Tracker:

Komentarze

Zaloguj się lub zarejestruj, by mieć możliwość dodawania komentarzy.

Ten torrent nie został jeszcze skomentowany. Dodaj pierwszy komentarz.