Torrenty.pl

Logowanie
Login:
Hasło:
Zarejestruj

Torrent

Snajper - Sniper (1993) [HDRip x264 AC3] [Napisy PL]

http://imagesup.org/images11/1372727957-txt.jpg

gatunek: Akcja
produkcja: Peru, USA
premiera: 29 stycznia 1993 (świat)
reżyseria: Luis Llosa
scenariusz: Michael Frost Beckner
czas: 01:39:02

Tough guy Thomas Beckett is a US Marine working in the Panamanian jungle. His job is to
seek out rebels and remove them using his sniper skills. Beckett is notorious for losing
his partners on such missions. This time he's accompanied by crack marksman Richard Miller,
who's more of an office-type. Together they plan to seek out an important rebel leader,
whilst avoiding a rogue marksman who frequents this part of the jungle.

Były sierżant piechoty morskiej, komandos Thomas Beckett (Tom Berenger) dostaje
zlecenie zabójstwa generała - watażki i jego najbliższego wspólnika - narkotykowego
bossa. W wyprawie przez niebezpieczną panamską dżunglę towarzyszy mu niedoświadczony
młody oficer z Waszyngtonu Richard Miller (Billy Zane). Podczas misji dochodzi do wielu
sporów pomiędzy starszym, zaprawionym w walce sierżantem a nieokrzesanym biurokratą.
Sytuację łagodzi jednak wspólny cel oraz depczący im po piętach były agent służb specjalnych,
w przeszłości uczeń Becketta.

http://imagesup.org/images11/1372727988-ale132013-07-01-11h.jpg
http://imagesup.org/images11/1372728027-ale132013-07-02-02h.jpg
http://imagesup.org/images11/1372728050-ale132013-07-02-02h.jpg

Obsada:

Tom Berenger ... Thomas Beckett
Billy Zane ... Richard Miller
J.T. Walsh ... Chester Van Damme
Aden Young ... Doug Papich

Dane techniczne:

Format : Matroska
Format version : Version 4 / Version 2
File size : 3.76 GiB
Duration : 1h 39mn
Overall bit rate : 5 429 Kbps
Movie name : Sniper (1993)_Rip.-alE13
Encoded date : UTC 2013-07-02 01:11:12
Writing application : mkvmerge v6.3.0
Writing library : libebml v1.3.0 + libmatroska v1.4.0

Video
ID : 1
Format : AVC
Format/Info : Advanced Video Codec
Format profile : High@L3.1
Format settings, CABAC : Yes
Format settings, ReFrames : 2 frames
Codec ID : V_MPEG4/ISO/AVC
Duration : 1h 39mn
Bit rate : 5 200 Kbps
Width : 1 280 pixels
Height : 720 pixels
Display aspect ratio : 16:9
Frame rate mode : Constant
Frame rate : 23.976 fps
Color space : YUV
Chroma subsampling : 4:2:0
Bit depth : 8 bits
Scan type : Progressive
Bits/(Pixel*Frame) : 0.235
Stream size : 3.53 GiB (94%)
Title : Sniper (1993)-alE13
Writing library : x264 core 112 r1834 a51816a

Audio
ID : 2
Format : AC-3
Format/Info : Audio Coding 3
Mode extension : CM (complete main)
Format settings, Endianness : Big
Codec ID : A_AC3
Duration : 1h 39mn
Bit rate mode : Constant
Bit rate : 224 Kbps
Channel(s) : 2 channels
Channel positions : Front: L R
Sampling rate : 48.0 KHz
Bit depth : 16 bits
Compression mode : Lossy
Stream size : 159 MiB (4%)
Title : Sniper (1993)-alE13_AC3
Language : English

Text #1
ID : 3
Format : UTF-8
Codec ID : S_TEXT/UTF8
Codec ID/Info : UTF-8 Plain Text
Title : Sniper (1993)-alE13
Language : Polish

Text #2
ID : 4
Format : UTF-8
Codec ID : S_TEXT/UTF8
Codec ID/Info : UTF-8 Plain Text
Title : Sniper (1993)-alE13
Language : English

  • Dodano: 2013-07-02
  • Ostatnia aktualizacja:
    8 mies. temu
  • Język:
  • Wstawił:
    ale13 w torrenty.org
  • Gatunek: Akcja


  • Rozmiar: 3.78 GB
  • Seedów: 0
  • Peerów: 0
  • Pobrano: 13
  • Komentarze: 0
  • Pobierz
  • Pobierz torrent
  • Zgłoś problem
  • Snajper (1993)-alE13.mkv(3.76 GB)
  • Sample.mkv(25.75 MB)
  • 2.jpg(671.34 kB)
  • ___alE13___2013-07-01-11h04m40s179.jpg(177.83 kB)
  • Nostalgie1.jpg(129.67 kB)
  • TXT.jpg(128.71 kB)
  • 1.jpg(79.36 kB)
  • ___alE13___2013-07-02-02h42m40s51.jpg(57.04 kB)
  • ___alE13___2013-07-02-02h43m08s96.jpg(41.92 kB)
  • Snajper (1993)-alE13_eng.srt(41.73 kB)
  • ___alE13___2013-07-02-02h43m34s111.jpg(40.6 kB)
  • ___alE13___2013-07-02-02h42m59s248.jpg(34.35 kB)
  • Snajper (1993)-alE13.srt(33.81 kB)
  • Torrent downloaded from alE13 torrents at BTScene.org.txt(120 B)
Pliki:
  • http://fr33dom.h33t.com:3310/announce
  • http://divxhunt.me/announce.php
  • http://pimp4003-torrents.me:2710/announce.php
  • http://p2pdl.com:2710/announce
  • http://www.h33t.com:3310/announce
Tracker:

Komentarze

Zaloguj się lub zarejestruj, by mieć możliwość dodawania komentarzy.

Ten torrent nie został jeszcze skomentowany. Dodaj pierwszy komentarz.