Torrenty.pl

Logowanie
Login:
Hasło:
Zarejestruj

Torrent

Minionki rozrabiają - Despicable Me 2 *2013* [CAM.x264]

gatunek: Animacja, Familijny, Komedia
produkcja: USA
premiera: 12 lipca 2013 (Polska) 20 czerwca 2013 (świat)
reżyseria: Pierre Coffin, Chris Renaud
scenariusz: Ken Daurio, Cinco Paul

Tajemniczy złoczyńca zamienia słodkie Minionki w paskudne potwory, które pożerają wszystko, co stanie im na drodze. Gru musi je uratować.

Obsada:

Steve Carell - Gru
Jason Segel - Vector
Elsie Kate Fisher - Agnes
Miranda Cosgrove - Margo
Russell Brand - Dr Nefario
Steve Coogan - Silas
Moises Arias - Antonio
Dana Gaier- Edith

http://www.filmweb.pl/film/Minionki+rozrabiaj%C4%85-2013-587324

General
Complete name : Despicable Me 2 2013 HDCAM READNFO x264 AAC-BadMeetsEvil.mp4
Format : MPEG-4
Format profile : Base Media
Codec ID : isom
File size : 735 MiB
Duration : 1h 30mn
Overall bit rate mode : Variable
Overall bit rate : 1 141 Kbps
Encoded date : UTC 2013-07-06 15:38:20
Tagged date : UTC 2013-07-06 15:38:20

Video
ID : 1
Format : AVC
Format/Info : Advanced Video Codec
Format profile : High@L4.1
Format settings, CABAC : Yes
Format settings, ReFrames : 3 frames
Codec ID : avc1
Codec ID/Info : Advanced Video Coding
Duration : 1h 30mn
Bit rate mode : Variable
Bit rate : 1 047 Kbps
Maximum bit rate : 40.0 Mbps
Width : 640 pixels
Height : 342 pixels
Display aspect ratio : 1.85:1
Frame rate mode : Constant
Frame rate : 23.976 fps
Color space : YUV
Chroma subsampling : 4:2:0
Bit depth : 8 bits
Scan type : Progressive
Bits/(Pixel*Frame) : 0.200
Stream size : 674 MiB (92%)
Writing library : x264 core 133 r2334 a3ac64b

Audio
ID : 2
Format : AAC
Format/Info : Advanced Audio Codec
Format profile : LC
Codec ID : 40
Duration : 1h 30mn
Bit rate mode : Variable
Bit rate : 90.7 Kbps
Maximum bit rate : 111 Kbps
Channel(s) : 2 channels
Channel positions : Front: L R
Sampling rate : 44.1 KHz
Compression mode : Lossy
Stream size : 58.4 MiB (8%)
Language : English
Encoded date : UTC 2013-07-06 15:30:54
Tagged date : UTC 2013-07-06 15:38:45

  • Despicable Me 2 2013 HDCAM READNFO x264 AAC-BadMeetsEvil.mp4(735.11 MB)
  • Sample1.mp4(8.12 MB)
  • Sample2.mp4(8.02 MB)
  • Torrent Downloaded From ExtraTorrent.com.txt(339 B)
  • despicable.nfo(3.62 kB)
Pliki:
  • http://fr33dom.h33t.com:3310/announce
  • udp://fr33dom.h33t.com:3310/announce
  • udp://10.rarbg.com/announce
  • udp://11.rarbg.com:80/announce
  • udp://fr33domtracker.h33t.com:3310/announce
  • udp://9.rarbg.com:2710/announce
  • http://tracker.ex.ua/announce
  • udp://www.h33t.com:3310/announce
  • udp://tracker.publicbt.com:80/announce
  • http://94.228.192.98/announce
  • udp://ipv4.tracker.harry.lu:80/announce
  • udp://tracker.publichd.eu/announce
Tracker:

Komentarze

Zaloguj się lub zarejestruj, by mieć możliwość dodawania komentarzy.

Ten torrent nie został jeszcze skomentowany. Dodaj pierwszy komentarz.