Torrenty.pl

Logowanie
Login:
Hasło:
Zarejestruj

Torrent

Yoko *2012* [BRRiP.XViD][GER][Lektor PL][AT-TEAM]

gatunek: Familijny, Przygodowy
produkcja: Austria, Niemcy, Szwecja
premiera: 16 lutego 2012 (świat)
reżyseria: Franziska Buch
Ratings: 5,3/10 from 84 users

Filmweb: 6.6/10
http://www.filmweb.pl/film/Yoko-2012-632878

IMDB: 5.3/10
http://www.imdb.com/title/tt1919207/?ref_=sr_4

Konkurs dla fanów/Competition for fans:
Przygarnij "Yoko" na facebooku i otrzymaj specjalne konto fana na AT-TEAM
https://www.facebook.com/aletorrenty

Opis:

Pia uważa, że świat jest głupi. Wszystko sprzysięgło się przeciwko niej... Nawet Lukas, jej dobry przyjaciel, nie potrafi rozweselić dziewczynki. I wtedy pojawia się… YOKO! – mała, futerkowa istota, która najchętniej je mrożonki, potrafi stawać się niewidzialna i uwielbia rapować, trzepocząc przy tym uszami.
Nagle życie Pii diametralnie się zmienia! Yoko depcze jednak po piętach wredny kłusownik Thor van Sneider. Czy dziewczynie uda się uratować nowego przyjaciela?

Storyline:

Pia believes that the world is stupid. Everything conspires against it ... Even Lukas, her good friend,
he can not cheer girls. And then there is ... YOKO! - A small, fur creature who prefer them frozen,
can become invisible and loves rap, flapping at the ears. Suddenly, life is changing dramatically Pia!
Yoko but tramples on the heels of nasty poacher Thor van Sneider. Is the girl manages to rescue a new friend?

Obsada/Cast:

Jamie Bick ... Pia
Friedrich Heine ... Lukas
Lilly Reulein ... Marcella
Laurentsio Pettersson ... Yoko
Oskar Wallroth ... Yoko
Tobias Moretti ... Thor van Sneider
Justus von Dohnányi ... Prof. Kellerman
Jessica Schwarz ... Mama Katja
Ken Takemoto ... Mönch Lobsang
Hoang Dang-Vu ... Lhapka
Helmfried von Lüttichau ... Gärtner / Wachmann
Phung Kiet ... Novize 2
Max Willems ... Novize 3
Theresa Underberg ... Berichterstatterin
Giora Seeliger ... Alter Wärter

Screen's:

http://img198.imageshack.us/img198/848/xkyv.jpg
http://img196.imageshack.us/img196/1879/6f7d.png
http://img10.imageshack.us/img10/6918/61l.png
http://img534.imageshack.us/img534/8250/6ya.png
http://img203.imageshack.us/img203/2007/n2p.png

Info:

Source: AT-TEAM
Upload from shell for everybody :)

Yoko 2012 [BRRiP.XViD][GER][Polish Lektor][AT-TEAM].avi

Format : AVI
Format/Info : Audio Video Interleave
File size : 696 MiB
Duration : 1h 38mn
Overall bit rate : 986 Kbps
Writing application : VirtualDubMod 1.5.10.2 (build 2540/release)
Writing library : VirtualDubMod build 2540/release

Video
ID : 0
Format : MPEG-4 Visual
Format profile : Advanced Simple@L5
Format settings, BVOP : 2
Format settings, QPel : No
Format settings, GMC : No warppoints
Format settings, Matrix : Custom
Codec ID : XVID
Codec ID/Hint : XviD
Duration : 1h 38mn
Bit rate : 849 Kbps
Width : 640 pixels
Height : 352 pixels
Display aspect ratio : 16:9
Frame rate : 25.000 fps
Color space : YUV
Chroma subsampling : 4:2:0
Bit depth : 8 bits
Scan type : Progressive
Compression mode : Lossy
Bits/(Pixel*Frame) : 0.151
Stream size : 599 MiB (86%)
Writing library : XviD 1.2.1 (UTC 2008-12-04)

Audio
ID : 1
Format : MPEG Audio
Format version : Version 1
Format profile : Layer 3
Mode : Joint stereo
Mode extension : MS Stereo
Codec ID : 55
Codec ID/Hint : MP3
Duration : 1h 38mn
Bit rate mode : Constant
Bit rate : 128 Kbps
Channel(s) : 2 channels
Sampling rate : 48.0 KHz
Compression mode : Lossy
Stream size : 90.4 MiB (13%)
Alignment : Aligned on interleaves
Interleave, duration : 40 ms (1.00 video frame)
Interleave, preload duration : 504 ms

Trailer:

http://www.youtube.com/watch?v=trx5eAhFK64

  • Yoko 2012 [BRRiP.XViD][GER][Polish Lektor][AT-TEAM].avi(696.45 MB)
  • Yoko-Ono-IMAGINE-PEACE-2012.jpg(661.2 kB)
  • AT-TEAM.jpg(36.66 kB)
  • yoko.jpg(10.26 kB)
  • Download Seed torrents at aletorrenty.pl.txt(2.12 kB)
  • Ale Torrenty Team enjoy the movie !.url(111 B)
  • Download Seed torrents at pimp4003-torrents.me.txt(46 B)
  • Download Seed torrents at flashtorrent.tk.txt(41 B)
  • Download Seed torrents at BTScene.org.txt(37 B)
  • Download Seed torrents at divxhunt.me.txt(37 B)
Pliki:
  • http://fr33dom.h33t.com:3310/announce
  • http://flashtorrent.tk/announce.php
  • http://divxhunt.me/announce.php
  • http://pimp4003-torrents.me:2710/announce.php
  • http://p2pdl.com:2710/announce
  • http://94.228.192.98/announce
  • http://tracker.yify-torrents.com/announce
  • http://bt.poletracker.org:2710/announce
  • udp://11.rarbg.com/announce
  • udp://fr33dom.h33t.com:3310/announce
  • udp://open.demonii.com:1337/announce
  • udp://tracker.istole.it:80/announce
  • udp://tracker.publicbt.com:80/announce
  • udp://tracker.openbittorrent.com:80/announce
Tracker:

Komentarze

Zaloguj się lub zarejestruj, by mieć możliwość dodawania komentarzy.

Ten torrent nie został jeszcze skomentowany. Dodaj pierwszy komentarz.