Torrenty.pl

Logowanie
Login:
Hasło:
Zarejestruj

Torrent

Percy Jackson: Morze potworów - Percy Jackson: Sea of Monsters *2013* [CAMRiP] [AAC-MURDER] [SPANISH]

Percy Jackson: Morze potworów - Percy Jackson: Sea of Monsters *2013* [CAMRiP] [AAC-MURDER] [SPANISH]
Tytuł: Percy Jackson: Sea of Monsters
Polski Tytuł: Percy Jackson: Morze potworów
====================

Ocena: IMDB - 6.6/10 (4.865), Filmweb - 7.2/10 (74)
Gatunek: Fantasy, Przygodowy
Czas trwania: 106 min
Produkcja: USA
Premiera: 16 sierpnia 2013 - Polska, 7 sierpnia 2013 - Świat
Reżyseria: Thor Freudenthal
Scenariusz: Marc Guggenheim


Opis
Percy Jackson, potomek bogów greckich, wyrusza na wyprawę, by odnaleźć bezcenne złote runo, a po drodze czekają go niezwykłe przygody i niewyobrażalne niebezpieczeństwa, a wśród nich starcie z morskimi potworami. W roli głównej: Logan Lerman ("Trzej muszkieterowie 3D").


Obsada
Logan Lerman ... Percy Jackson
Alexandra Daddario ... Annabeth Chase
Douglas Smith ... Tyson
Leven Rambin ... Clarisse La Rue
Brandon T. Jackson ... Grover Underwood
Jake Abel ... Luke Castellan
Anthony Head ... Chiron
Stanley Tucci ... Pan D


Info
http://www.filmweb.pl/film/Percy+Jackson%3A+Morze+potwor%C3%B3w-2013-589034
http://fdb.pl/film/261095-percy-jackson-morze-potworow
http://www.imdb.com/title/tt1854564/?ref_=sr_1


Dane Techniczne
General
Complete name : Percy Jackson Sea of Monsters 2013 CAMRiP AAC MURDER.mp4
Format : MPEG-4
Format profile : Base Media
Codec ID : isom
File size : 561 MiB
Duration : 1h 29mn
Overall bit rate : 874 Kbps
Writing application : Lavf55.8.102

Video
ID : 1
Format : AVC
Format/Info : Advanced Video Codec
Format profile : High@L3.0
Format settings, CABAC : Yes
Format settings, ReFrames : 4 frames
Codec ID : avc1
Codec ID/Info : Advanced Video Coding
Duration : 1h 29mn
Bit rate mode : Variable
Bit rate : 805 Kbps
Width : 656 pixels
Height : 352 pixels
Display aspect ratio : 1.85:1
Frame rate mode : Constant
Frame rate : 23.976 fps
Color space : YUV
Chroma subsampling : 4:2:0
Bit depth : 8 bits
Scan type : Progressive
Bits/(Pixel*Frame) : 0.145
Stream size : 517 MiB (92%)
Writing library : x264 core

Audio
ID : 2
Format : AAC
Format/Info : Advanced Audio Codec
Format profile : LC
Codec ID : 40
Duration : 1h 29mn
Duration_LastFrame : -5ms
Bit rate mode : Constant
Bit rate : 64.0 Kbps
Channel(s) : 2 channels
Channel positions : Front: L R
Sampling rate : 48.0 KHz
Compression mode : Lossy
Stream size : 41.1 MiB (7%)

  • Percy Jackson Sea of Monsters 2013 CAMRiP AAC MURDER.mp4(561.09 MB)
  • vlcsnap-2013-08-15-18h36m28s5.png(352.69 kB)
  • vlcsnap-2013-08-15-18h34m35s162.png(284.77 kB)
  • vlcsnap-2013-08-15-18h35m14s32.png(243.12 kB)
  • vlcsnap-2013-08-15-18h36m08s59.png(224.09 kB)
  • vlcsnap-2013-08-15-18h34m10s162.png(220.94 kB)
  • vlcsnap-2013-08-15-18h35m35s244.png(175.57 kB)
  • percy_jackson_sea_of_monsters_ver7.jpg(169.72 kB)
  • New Text Document.txt(3.21 kB)
Pliki:
  • udp://tracker.istole.it:80/announce
  • http://exodus.desync.com/announce
  • udp://tracker.publicbt.com:80/announce
  • http://fr33dom.h33t.com:3310/announce
  • udp://tracker.openbittorrent.com:80/announce
  • udp://open.demonii.com:1337/announce
  • http://tracker2.wasabii.com.tw:6969/announce
  • udp://9.rarbg.com:2710/announce
  • http://tracker.dler.org:6969/announce
  • udp://tracker.openbittorrent.com/announce
Tracker:

Komentarze

Zaloguj się lub zarejestruj, by mieć możliwość dodawania komentarzy.

Ten torrent nie został jeszcze skomentowany. Dodaj pierwszy komentarz.

Popularne frazy

Sparks Big Titty MILFs Gold Wave Stomp the yard lektor Ostatni samuraj lektor El cid Droga 2009 Admirał Timestop Klubbheads Dolina Masters of sex pl Heart of darkness Static 2012 Fabryka czekolady INSOMNIA Machines ass Traktor tom Pumping iron pl Piosenki Grand theft auto v gta 5 Party hardcore 30 Revenge of the sith bluray Mommy and me 10 Nagla smierc Tomb rider O mnie sie nie martw s01e11 Fifty shades of grey soundtrack Extreme Force Opowiesci kanterberyjskie Czerwony kapturek Anthill films Ken tamplin El barco Marine Fallout Brett simon wstrzas dla systemu Harold i kumar uciekają z guantanamo Insidious: Chapter 3 Zalewski zelig