Torrenty.pl

Logowanie
Login:
Hasło:
Zarejestruj

Torrent

Dary Anioła: Miasto Kości - The Mortal Instruments City of Bones (2013) [CAM.XviD]

gatunek: Dramat, Fantasy, Przygodowy
produkcja: Niemcy, USA
premiera: 21 sierpnia 2013 (Polska), 12 sierpnia 2013 (świat)
reżyseria: Harald Zwart
scenariusz: Jessica Postigo

Zwyczajna na pozór nastolatka Clary Fray odkrywa, że należy do niezwykłej kasty Nocnych Łowców, którzy chronią świat przed atakami demonów.

General
Complete name : The Mortal Instruments City of Bones 2013 CAM READNFO XViD - VAiNThe Mortal Instruments City of Bones 2013 CAM READNFO XViD - VAiN.avi
Format : AVI
Format/Info : Audio Video Interleave
File size : 1.38 GiB
Duration : 2h 1mn
Overall bit rate : 1 629 Kbps
Writing application : VirtualDubMod 1.5.10.2 (build 2540/release)
Writing library : VirtualDubMod build 2540/release

Video
ID : 0
Format : MPEG-4 Visual
Format profile : Advanced Simple@L5
Format settings, BVOP : 2
Format settings, QPel : No
Format settings, GMC : No warppoints
Format settings, Matrix : Default (MPEG)
Muxing mode : Packed bitstream
Codec ID : XVID
Codec ID/Hint : XviD
Duration : 2h 1mn
Bit rate : 1 489 Kbps
Width : 720 pixels
Height : 304 pixels
Display aspect ratio : 2.35:1
Original display aspect ratio : 2.35:1
Frame rate : 29.017 fps
Original frame rate : 29.023 fps
Color space : YUV
Chroma subsampling : 4:2:0
Bit depth : 8 bits
Scan type : Progressive
Compression mode : Lossy
Bits/(Pixel*Frame) : 0.234
Stream size : 1.27 GiB (91%)
Writing library : XviD 64

Audio
ID : 1
Format : MPEG Audio
Format version : Version 1
Format profile : Layer 3
Codec ID : 55
Codec ID/Hint : MP3
Duration : 2h 1mn
Bit rate mode : Constant
Bit rate : 128 Kbps
Channel(s) : 2 channels
Sampling rate : 44.1 KHz
Compression mode : Lossy
Stream size : 111 MiB (8%)
Alignment : Split accross interleaves
Interleave, duration : 34 ms (1.00 video frame)
Interleave, preload duration : 500 ms





E N C O D E R S . N O T E S . . .
SOURCE......: 720p V2 (thanks :D )
SAMPLE......: Yes

  • Sample.avi(23.36 MB)
  • The Mortal Instruments City of Bones 2013 CAM READNFO XViD - VAiN.avi(1.38 GB)
  • VAiN.nfo(4.07 kB)
  • www.RARBG.com.txt(45 B)
Pliki:
  • udp://tracker.publicbt.com:80/announce
  • udp://tracker.openbittorrent.com:80/announce
  • udp://fr33domtracker.h33t.com:3310/announce
  • udp://tracker.istole.it:80/announce
  • http://tracker.trackerfix.com/announce
  • udp://9.rarbg.com:2710/announce
  • udp://12.rarbg.me:80/announce
  • udp://10.rarbg.me:80/announce
  • udp://11.rarbg.me:80/announce
  • udp://9.rarbg.me:2710/announce
Tracker:

Komentarze

Zaloguj się lub zarejestruj, by mieć możliwość dodawania komentarzy.

Ten torrent nie został jeszcze skomentowany. Dodaj pierwszy komentarz.

Popularne frazy

Private movies Android app Sky Of Rage Sky Of Rage Pan samochodzik Car mechanic pl Jump street 22 The currents Iron sky Gia darling Pitbull Sezon Hansel Gretel Get Baked Order of War Pokemon white Starshine Porte jarretelles Jarre flac Zandarm i policjantki Straszny Dom The stranger pl Peanuts \Spider man2 Mad men s01 Babylon 5 lost tales Sniper: art of victory Contractor Chennai express pl Irena kwiatkowska Worms 3d Nancey Pocztowki z Choky ice So weit die Fü Sacred reich Archiwum 911 pl Metal ballads Ratatouille The hate Gigi d'agostino flac Barbie i tajemnicze drzwi