Torrenty.pl

Logowanie
Login:
Hasło:
Zarejestruj

Torrent

Wielki Gatsby 3D (SBS) - The Great Gatsby 3D *2013* [1080p Half Side-by-Side Dual audio DTS-HD MA 5 1 AC3 BluRay x264-SONDA] [Lektor i napisy PL]

Filmy » 3D

Film w wersji 3D Side-by-Side.
Do odtworzenia filmu WYMAGANY odpowiedni sprzęt (TV 3D)
=================================================

http://www.imdb.com/title/tt1343092/?ref_=fn_al_tt_1

gatunek: Melodramat
produkcja: Australia,USA
premiera: 17 maja 2013 (Polska) 1 maja 2013 (świat)
reżyseria: Baz Luhrmann
scenariusz: Baz Luhrmann,Craig Pearce

Obsada:

Leonardo DiCaprio - Jay Gatsby
Tobey Maguire - Nick Carraway
Carey Mulligan - Daisy Buchanan
Joel Edgerton - Tom Buchanan

Film opowiada o nieszczęśliwej miłości w czasach prohibicji i gangsterów na tle Nowego Jorku lat 20 ubiegłego wieku. Miejscowy milioner Gatsby po 11 latach spotyka swoją dawną miłość Daisy. Mężczyznę i kobietę łączył kiedyś romans, jednak ich drogi rozeszły się z powodu różnić klasowych. Gatsby wyjechał w poszukiwaniu bogactwa, a Daisy nie czekając na niego, wyszła za mąż za majętnego Toma. Po latach dochodzi między nimi do spotkania. Dawni kochankowie próbują na nowo wzbudzić uczucia do siebie.

BluRay 3D Rip (SBS) - SONDA
---------------------------------

General
Unique ID : 252016215805119274191134740731245134424 (0xBD988EC2161E93689CE195E478808258)
Complete name : F:mkvGREAT_GATSBY_3D_BLUEBIRDGREAT_GATSBY_3D_BLUEBIRD.Title98(Sonda).mkv
Format : Matroska
Format version : Version 2
File size : 10.7 GiB
Duration : 2h 22mn
Overall bit rate mode : Variable
Overall bit rate : 10.7 Mbps
Movie name : GREAT_GATSBY_3D_BLUEBIRD.Title98.Bluray3D Rip by Sonda
Encoded date : UTC 2013-09-11 10:48:50
Writing application : mkvmerge v5.7.0 ('The Whirlwind') built on Jul 8 2012 20:08:51
Writing library : libebml v1.2.3 + libmatroska v1.3.0

Video
ID : 1
Format : AVC
Format/Info : Advanced Video Codec
Format profile : High@L4.1
Format settings, CABAC : Yes
Format settings, ReFrames : 2 frames
Codec ID : V_MPEG4/ISO/AVC
Duration : 2h 22mn
Bit rate mode : 7411 Kbps
Maximum bit rate : 40.0 Mbps
Width : 1 920 pixels
Height : 1 080 pixels
Display aspect ratio : 16:9 (2.39:1)
Frame rate mode : Constant
Frame rate : 23.976 fps
Color space : YUV
Chroma subsampling : 4:2:0
Bit depth : 8 bits
Scan type : Progressive
Title : BluRay 3D Rip by Sonda - 2 pass encoding
Writing library : x264 core
Default : Yes
Forced : No
Color primaries : BT.709
Transfer characteristics : BT.709
Matrix coefficients : BT.709

Audio #1
ID : 2
Format : AC-3
Format/Info : Audio Coding 3
Mode extension : CM (complete main)
Format settings, Endianness : Big
Codec ID : A_AC3
Duration : 2h 22mn
Bit rate mode : Constant
Bit rate : 448 Kbps
Channel(s) : 6 channels
Channel positions : Front: L C R, Side: L R, LFE
Sampling rate : 48.0 KHz
Bit depth : 16 bits
Compression mode : Lossy
Stream size : 455 MiB (4%)
Title : AC3 5.1 Lektor PL
Language : Polish
Default : Yes
Forced : Yes

Audio #2
ID : 3
Format : AC-3
Format/Info : Audio Coding 3
Mode extension : CM (complete main)
Format settings, Endianness : Big
Codec ID : A_AC3
Duration : 2h 22mn
Bit rate mode : Constant
Bit rate : 640 Kbps
Channel(s) : 6 channels
Channel positions : Front: L C R, Side: L R, LFE
Sampling rate : 48.0 KHz
Bit depth : 16 bits
Compression mode : Lossy
Stream size : 650 MiB (6%)
Title : AC3 5.1 Orginal
Language : English
Default : No
Forced : No

Audio #3
ID : 4
Format : DTS
Format/Info : Digital Theater Systems
Format profile : MA / Core
Mode : 16
Format settings, Endianness : Big
Codec ID : A_DTS
Duration : 2h 22mn
Bit rate mode : Variable
Bit rate : 2183 / 1509 Kbps
Channel(s) : 6 channels
Channel positions : Front: L C R, Side: L R, LFE
Sampling rate : 48.0 KHz
Bit depth : 16 bits
Compression mode : Lossless / Lossy
Title : DTS-HD MA 5.1 Orginal
Language : English
Default : No
Forced : No

Text
ID : 5
Format : UTF-8
Codec ID : S_TEXT/UTF8
Codec ID/Info : UTF-8 Plain Text
Language : Polish
Default : No
Forced : No

Menu
00:00:00.000 : en:(01)00:00:00:000
00:11:04.080 : en:(02)00:11:04:080
00:22:55.832 : en:(03)00:22:55:832
00:34:26.898 : en:(04)00:34:26:898
00:44:48.727 : en:(05)00:44:48:727
00:55:36.333 : en:(06)00:55:36:333
01:06:20.643 : en:(07)01:06:20:643
01:18:27.786 : en:(08)01:18:27:786
01:31:13.926 : en:(09)01:31:13:926
01:44:11.954 : en:(10)01:44:11:954
01:56:35.154 : en:(11)01:56:35:154
02:05:46.121 : en:(12)02:05:46:121
02:09:40.981 : en:(13)02:09:40:981
02:22:05.475 : en:(14)02:22:05:475

  • Dodano: 11 mies. temu
  • Ostatnia aktualizacja:
    7 mies. temu
  • Język:
  • Wstawił:
    sonda w torrenty.org
  • Gatunek: Dramat


  • Rozmiar: 10.65 GB
  • Seedów: 4
  • Peerów: 48
  • Pobrano: 201
  • Komentarze: 0
  • Pobierz
  • Pobierz torrent
  • Zgłoś problem
  • GREAT_GATSBY_3D_BLUEBIRD.Title98(Sonda).mkv(10.65 GB)
  • 1cce10be4edd52757fd5ef7c8955d6ab.jpg(138.23 kB)
  • GREAT_GATSBY_3D_BLUEBIRD.Title98(Sonda).srt(102.62 kB)
  • GREAT_GATSBY_3D_BLUEBIRD.Title98(Sonda).txt(68.44 kB)
Pliki:
  • http://newhorizons.twentyforty.me:2710/announce
  • http://fr33dom.h33t.com:3310/announce
  • http://exodus.desync.com:6969/announce
  • http://i.bandito.org/announce
  • udp://9.rarbg.com:2710/announce
  • udp://ipv4.tracker.harry.lu:80/announce
  • udp://tracker.istole.it:80/announce
  • udp://tracker.publicbt.com/announce
  • udp://10.rarbg.com/announce
  • udp://11.rarbg.me/announce
  • udp://11.rarbg.com/announce
  • udp://10.rarbg.me/announce
  • udp://tracker.openbittorrent.com
  • udp://tracker.openbittorrent.com:80
  • udp://tracker.publicbt.com:80/announce
  • udp://9.rarbg.me:2710/announce
Tracker:

Komentarze

Zaloguj się lub zarejestruj, by mieć możliwość dodawania komentarzy.

Ten torrent nie został jeszcze skomentowany. Dodaj pierwszy komentarz.