Torrenty.pl

Logowanie
Login:
Hasło:
Zarejestruj

Torrent

La Grande Bellezza [The Great Beauty] 2013 DVDRip XviD AC3 HORiZ

 Title:
La Grande Bellezza Aka The Great Beauty

Country:
Italy, 2013

Language:
Italian

Subtitle:
Italian

IMDB:  
http://www.imdb.com/title/tt2358891

Trivia:
Italy's official submission to the Best Foreign Language Film category for the 86th Academy Awards

Official Selection Cannes Film Festival 2013

Media Info:

General
Complete name                            : La.Grande.Bellezza.[The.Great.Beauty].2013.DVDRip.XviD.AC3.HORiZON-ArtSubs
Format                                   : AVI
Format/Info                              : Audio Video Interleave
File size                                : 1.75 GiB
Duration                                 : 2h 15mn
Overall bit rate                         : 1 860 Kbps
Writing application                      : FairUse Wizard - http://fairusewizard.com
Writing library                          : The best and REALLY easy backup tool

Video
ID                                       : 0
Format                                   : MPEG-4 Visual
Format profile                           : Advanced Simple@L5
Format settings, BVOP                    : 1
Format settings, QPel                    : No
Format settings, GMC                     : No warppoints
Format settings, Matrix                  : Default (MPEG)
Muxing mode                              : Packed bitstream
Codec ID                                 : XVID
Codec ID/Hint                            : XviD
Duration                                 : 2h 15mn
Bit rate                                 : 1 467 Kbps
Width                                    : 688 pixels
Height                                   : 288 pixels
Display aspect ratio                     : 2.40:1
Frame rate                               : 25.000 fps
Color space                              : YUV
Chroma subsampling                       : 4:2:0
Bit depth                                : 8 bits
Scan type                                : Progressive
Compression mode                         : Lossy
Bits/(Pixel*Frame)                       : 0.296
Stream size                              : 1.38 GiB (79%)
Writing library                          : XviD 1.2.0.dev47 (UTC 2006-11-01)

Audio
ID                                       : 1
Format                                   : AC-3
Format/Info                              : Audio Coding 3
Mode extension                           : CM (complete main)
Format settings, Endianness              : Big
Codec ID                                 : 2000
Duration                                 : 2h 15mn
Bit rate mode                            : Constant
Bit rate                                 : 384 Kbps
Channel count                            : 6 channels
Channel positions                        : Front: L C R, Side: L R, LFE
Sampling rate                            : 48.0 KHz
Bit depth                                : 16 bits
Compression mode                         : Lossy
Stream size                              : 371 MiB (21%)
Alignment                                : Split accross interleaves
Interleave, duration                     : 40 ms (1.00 video frame)
Interleave, preload duration             : 500 ms
		 
  • La.Grande.Bellezza.[The.Great.Beauty].2013.DVDRip.XviD.AC3.HORiZON-ArtSubs.avi(1.75 GB)
  • La.Grande.Bellezza.[The.Great.Beauty].2013.DVDRip.XviD.AC3.HORiZON-ArtSubs.srt(85.52 kB)
Pliki:
  • http://tracker.thepiratebay.org/announce
  • udp://tracker.openbittorrent.com:80
  • udp://tracker.ccc.de:80
  • udp://tracker.publicbt.com:80
Tracker:

Komentarze

Zaloguj się lub zarejestruj, by mieć możliwość dodawania komentarzy.

Ten torrent nie został jeszcze skomentowany. Dodaj pierwszy komentarz.

Popularne frazy

Test drive unlimited spolszczenie Battlefield 3 update Nxt 2010 Nicolehitman myfreecams Happiness Jak wytresowac smoka 3d Huge tits Franek kimono Drive 2011 Mathcad Bullet for my valentine Infinity Dopoki pilka w grze Brubaker pl Saved 100 Street Racing Syndicate Gta iv crack Smierc sie smieje Bbc human planet Stworzeni dla siebie Sony vegas pl The sims 2 base Teksanska Californication sezon 5 Dywersant 1080p napisy pl Naughty america Wszyscy jestesmy chrystusami Francesco Ki 2011 pl Tornado Dead man down 2013 2013 lektor pl Freddy krueger 7 Days To Die Alpha 2 Don chichot donkey xote Gta v pc Athina Z calego serca