Torrenty.pl

Logowanie
Login:
Hasło:
Zarejestruj

Torrent

Android Cop 2014 BRRip X264 AAC-KSRG-3x

  http://www.imdb.com/title/tt3393070/

General
Complete name : Android Cop 2014 BRRip X264 AAC-KSRG.mp4
Format : MPEG-4
Format profile : Base Media
Codec ID : isom
File size : 375 MiB
Duration : 1h 24mn
Overall bit rate mode : Variable
Overall bit rate : 623 Kbps

Video
ID : 1
Format : AVC
Format/Info : Advanced Video Codec
Format profile : Main@L3.0
Format settings, CABAC : Yes
Format settings, ReFrames : 4 frames
Codec ID : avc1
Codec ID/Info : Advanced Video Coding
Duration : 1h 24mn
Bit rate : 591 Kbps
Maximum bit rate : 5 031 Kbps
Width : 720 pixels
Height : 400 pixels
Display aspect ratio : 16:9
Frame rate mode : Constant
Frame rate : 23.976 fps
Color space : YUV
Chroma subsampling : 4:2:0
Bit depth : 8 bits
Scan type : Progressive
Bits/(Pixel*Frame) : 0.086
Stream size : 356 MiB (95%)
Writing library : x264 core 138 r2358 9e941d1

Audio
ID : 2
Format : AAC
Format/Info : Advanced Audio Codec
Format profile : LC
Codec ID : 40
Duration : 1h 24mn
Bit rate mode : Variable
Bit rate : 27.6 Kbps
Maximum bit rate : 50.9 Kbps
Channel count : 2 channels
Channel positions : Front: L R
Sampling rate : 48.0 KHz
Compression mode : Lossy
Stream size : 16.6 MiB (4%)
		 
  • Dodano: 2014-02-02
  • Ostatnia aktualizacja:
    2014-02-03
  • Wstawił:
    TeamGBZ w thepiratebay.se


  • Rozmiar: 374.94 MB
  • Seedów: 25
  • Peerów: 19
  • Pobrano: 0
  • Komentarze: 0
  • Pobierz torrent
  •  
  • Zgłoś problem
  • AndroidMafia.Me.txt(60 B)
  • ReadMe.txt(692 B)
  • Torrent downloaded from HollyTorrents.Com.txt(367 B)
  • [3x] Android Cop 2014 BRRip X264 AAC-KSRG.mp4(374.94 MB)
  • www.viatech.us.txt(26 B)
Pliki:
  • http://tracker.thepiratebay.org/announce
  • udp://tracker.openbittorrent.com:80
  • udp://tracker.ccc.de:80
  • udp://tracker.publicbt.com:80
  • http://tracker.secureboxes.net/announce
  • http://announce.torrentsmd.com:6969/announce.php
  • http://pubt.net:2710/announce
  • http://tracker.librebt.com/announce
  • udp://coppersurfer.tk:6969/announce
  • http://tracker3.torrentino.com/announce
  • udp://ipv4.tracker.harry.lu:80/announce
  • udp://tracker.secureboxes.net:80/announce
Tracker:

Komentarze

Zaloguj się lub zarejestruj, by mieć możliwość dodawania komentarzy.

Ten torrent nie został jeszcze skomentowany. Dodaj pierwszy komentarz.

Popularne frazy

Grobowce atuanu Dragon age dlc Amateur threesome Latina avi Android s Wolny strzelec napisy pl Miłosna huśtawka The Bounceback aka Love Air Sex RageStory Bones soundtrack The knick s01e09 Heroes 5 pl Minionki 480p Farciarz gilmore żywe trupy s05e10 The sims 1 pl Rescue Sniper Elite v2 Miasto slepcow Czego pragną kobiety Wyscig smierci 1 3 Injection The Boxtrolls Wall?e Jurassic World Kogel mogel Miejskie Życie Filmy wmv Twardowski 90 plus Raiders of the lost ark 1981 dts F1 2009 Hentai Ostatnie Uderzenie Strike Back Lost in you heidi mclaughlin Lessdress Android pc Eksperyment Ponczochy Black girls Blood feast