Torrenty.pl

Logowanie
Login:
Hasło:
Zarejestruj

Torrent

Grawitacja 3D(OU) - Gravity 3D *2013* [1080p Half Over-Under DTS 5 1 AC3 SUBBEDPL BluRay x264-SONDA] [AT-TEAM]

Filmy » 3D

Film w wersji 3D Over-Under.
Do odtworzenia filmu WYMAGANY odpowiedni sprzęt (TV 3D)
=================================================
UWAGA: Napisy 3D na stałe wtopione w film. Zapraszam Wszystkich chętnych !!!!!!!
=============================================================

gatunek: Dramat,Sci-Fi
produkcja: USA,Wielka Brytania
premiera: 11 października 2013 (Polska) 28 sierpnia 2013 (świat)
reżyseria: Alfonso Cuarón
scenariusz: Jonás Cuarón,Alfonso Cuarón

Obsada:
Sandra Bullock - Ryan Stone
George Clooney - Matt Kowalsky
Ed Harris - Dyrektor kontroli misji
Orto Ignatiussen - Aningaaq
Paul Sharma - Shariff
Amy Warren - Kapitan w Explorerze

Opis:
Dr Ryan Stone (Sandra Bullock) jest wybitną specjalistką od inżynierii medycznej. Zatrudniona przez NASA trafia do zespołu pracującego przy naprawie teleskopu Hubble'a. Dowódcą misji jest Matt Kowalsky (George Clooney), który po powrocie na Ziemię ma zakończyć karierę astronauty. Kiedy w prom kosmiczny, którym fachowcy przylecieli na orbitę, uderzają szczątki starego rosyjskiego satelity, ginie większość członków misji. Przy życiu pozostają tylko dr Stone i Kowalsky. Od tej chwili są zdani tylko na siebie. Muszą dotrzeć do innego promu, ale zapas powietrza w uszkodzonych zbiornikach nieubłaganie się wyczerpuje...

[Blu-ray] http://www.blu-ray.com/movies/Gravity-3D-Blu-ray/82748/

[IMDb] http://www.imdb.com/title/tt1454468/?ref_=fn_al_tt_1


BluRay 3D Rip (OU) - SONDA
===========================

General
Format : Matroska
Format version : Version 2
File size : 8.36 GiB
Duration : 1h 30mn
Encoding type : 2 pass
Overall bit rate mode : Variable
Overall bit rate : 13.1 Mbps
Movie name : GRAVITY_3D.Bluray3D Rip by Sonda [AT-Team]
Encoded date : UTC 2014-02-08 09:33:53
Writing application : mkvmerge v5.7.0 ('The Whirlwind') built on Jul 8 2012 20:08:51
Writing library : libebml v1.2.3 + libmatroska v1.3.0

Video
ID : 1
Format : AVC
Format/Info : Advanced Video Codec
Format profile : High@L4.1
Format settings, CABAC : Yes
Format settings, ReFrames : 2 frames
Codec ID : V_MPEG4/ISO/AVC
Duration : 1h 30mn
Bit rate mode : Variable
Bit rate : 11.0 Mbps
Maximum bit rate : 40.0 Mbps
Width : 1 920 pixels
Height : 1 080 pixels
Display aspect ratio : 16:9 (2.39:1)
Frame rate mode : Constant
Frame rate : 23.976 fps
Color space : YUV
Chroma subsampling : 4:2:0
Bit depth : 8 bits
Scan type : Progressive
Bits/(Pixel*Frame) : 0.221
Stream size : 6.83 GiB (82%)
Title : BluRay 3D Rip by Sonda subbedPL - encoding 2 pass
Writing library : x264 core 112 r1834 a51816a
Default : Yes
Forced : No

Audio #1
ID : 2
Format : AC-3
Format/Info : Audio Coding 3
Mode extension : CM (complete main)
Format settings, Endianness : Big
Codec ID : A_AC3
Duration : 1h 30mn
Bit rate mode : Constant
Bit rate : 640 Kbps
Channel(s) : 6 channels
Channel positions : Front: L C R, Side: L R, LFE
Sampling rate : 48.0 KHz
Bit depth : 16 bits
Compression mode : Lossy
Stream size : 417 MiB (5%)
Title : AC3 5.1 English
Language : English
Default : Yes
Forced : Yes

Audio #2
ID : 3
Format : DTS
Format/Info : Digital Theater Systems
Mode : 16
Format settings, Endianness : Big
Codec ID : A_DTS
Duration : 1h 30mn
Bit rate mode : Constant
Bit rate : 1 509 Kbps
Channel(s) : 6 channels
Channel positions : Front: L C R, Side: L R, LFE
Sampling rate : 48.0 KHz
Bit depth : 16 bits
Compression mode : Lossy
Stream size : 982 MiB (11%)
Title : DTS 5.1 Orginal
Language : English
Default : No
Forced : No

Menu
00:00:00.000 : en:00:00:00.000
00:13:08.830 : en:00:13:08.830
00:21:33.542 : en:00:21:33.542
00:29:12.668 : en:00:29:12.668
00:39:59.856 : en:00:39:59.856
00:48:49.051 : en:00:48:49.051
00:57:00.667 : en:00:57:00.667
01:08:08.418 : en:01:08:08.418
01:15:27.148 : en:01:15:27.148
01:23:50.567 : en:01:23:50.567


Source:
A/V-Gravity.2013.1080p.BluRay.3D.AVC.DTS-HD.MA.5.1-PublicHD
SUBBEDPL - SONDA

  • GRAVITY_3D_SUBBEDPL(Sonda).mkv(8.36 GB)
  • gravity-3d-steel-480.jpg(155.84 kB)
  • AT-TEAM old movie.jpg(140.78 kB)
  • AT-TEAM.jpg(36.66 kB)
  • Read iNFO.txt(2.07 kB)
  • Ale Torrenty Team enjoy !.url(111 B)
Pliki:
  • http://tracker.aletorrenty.pl:2710/announce
  • http://94.228.192.98/announce
  • http://tracker.torrenty.org:6969/announce
  • http://exodus.desync.com:6969/announce
  • http://fr33dom.h33t.com:3310/announce
  • http://newhorizons.twentyforty.me:2710/announce
  • http://i.bandito.org/announce
  • udp://9.rarbg.com:2710/announce
  • udp://ipv4.tracker.harry.lu:80/announce
  • udp://tracker.istole.it:80/announce
  • udp://tracker.publicbt.com/announce
  • udp://10.rarbg.com/announce
  • udp://11.rarbg.me/announce
  • udp://11.rarbg.com/announce
  • udp://10.rarbg.me/announce
  • udp://tracker.openbittorrent.com
  • udp://tracker.openbittorrent.com:80
  • udp://tracker.publicbt.com:80/announce
  • udp://9.rarbg.me:2710/announce
Tracker:

Komentarze

Zaloguj się lub zarejestruj, by mieć możliwość dodawania komentarzy.

Ten torrent nie został jeszcze skomentowany. Dodaj pierwszy komentarz.