Torrenty.pl

Logowanie
Login:
Hasło:
Zarejestruj

Torrent

Paranormal Activity: Naznaczeni - Paranormal Activity :The Marked Ones (2014) [1080p BDrip DTS x264-KICKASS] [ENG]

Filmy » HDTV

*** INFORMACJE ***

http://www.filmweb.pl/film/Paranormal+Activity%3A+Naznaczeni-2014-670592

http://www.youtube.com/watch?v=ZZ49bqv2v10&feature=youtu.be

Produkcja - USA
Gatunek - Horror
Premiera - 24.01.2014 (Polska), 01.01.2014 (świat)
Reżyseria - Christopher Landon
Scenariusz - Christopher Landon

*** OPIS ***

Rodzina i przyjaciele próbują uratować Jessiego przed tajemniczymi siłami, które go nawiedzają.

*** OBSADA ***

Andrew Jacobs - Jesse
Jorge Diaz - Hector
Gabrielle Walsh - Marisol
Renee Victor - Babcia Jessego
Noemi Gonzalez - Evette
David Saucedo - Cesar
Gloria Sandoval - Anna
Richard Cabral - Arturo

*** DANE TECHNICZNE ***

Duration: 01:24:12
Quality: BDRip 1080p
Video: 9636 kbps, 1920x1080
Audio: Russian: AC3, 192 kb/s (2 ch) / English: DTS, 1509 kb/s (6 ch)
Chapters: Yes

Format : Matroska
Format version : Version 4 / Version 2
File size : 6.67 GiB
Duration : 1h 24mn
Overall bit rate : 11.3 Mbps
Encoded date : UTC 2014-03-29 15:53:33
Writing application : mkvmerge v6.5.0 ('Isn't she lovely') built on Oct 20 2013 12:50:05
Writing library : libebml v1.3.0 + libmatroska v1.4.1

Video
ID : 1
Format : AVC
Format/Info : Advanced Video Codec
Format profile : High@L4.1
Format settings, CABAC : Yes
Format settings, ReFrames : 4 frames
Codec ID : V_MPEG4/ISO/AVC
Duration : 1h 24mn
Bit rate : 9 636 Kbps
Width : 1 920 pixels
Height : 1 080 pixels
Display aspect ratio : 16:9
Frame rate : 23.976 fps
Color space : YUV
Chroma subsampling : 4:2:0
Bit depth : 8 bits
Scan type : Progressive
Bits/(Pixel*Frame) : 0.194

Audio #1
ID : 2
Format : AC-3
Format/Info : Audio Coding 3
Mode extension : CM (complete main)
Codec ID : A_AC3
Duration : 1h 24mn
Bit rate mode : Constant
Bit rate : 192 Kbps
Channel(s) : 2 channels
Channel positions : Front: L R
Sampling rate : 48.0 KHz
Bit depth : 16 bits
Compression mode : Lossy
Stream size : 116 MiB (2%)

Audio #2
ID : 3
Format : DTS
Format/Info : Digital Theater Systems
Codec ID : A_DTS
Duration : 1h 24mn
Bit rate mode : Constant
Bit rate : 1 510 Kbps
Channel(s) : 6 channels
Channel positions : Front: L C R, Side: L R, LFE
Sampling rate : 48.0 KHz
Bit depth : 24 bits
Compression mode : Lossy
Stream size : 909 MiB (13%)
Language : English

  • Dodano: 4 mies. temu
  • Ostatnia aktualizacja:
    4 mies. temu
  • Wstawił:
    rodzislaw_86 w torrenty.org
  • Gatunek: Horror


  • Rozmiar: 6.67 GB
  • Seedów: ??
  • Peerów: ??
  • Pobrano: 29
  • Komentarze: 0
  • Pobierz
  • Pobierz torrent
  • Zgłoś problem
  • Paranomalnoe.Yavlenie.Metka.2013.D.BDRip.1080p_.mkv(6.67 GB)
Pliki:
  • udp://tracker.publicbt.com:80/announce
  • udp://tracker.openbittorrent.com:80/announce
  • udp://tracker.istole.it:80/announce
  • http://retracker.local/announce
Tracker:

Komentarze

Zaloguj się lub zarejestruj, by mieć możliwość dodawania komentarzy.

Ten torrent nie został jeszcze skomentowany. Dodaj pierwszy komentarz.