Torrenty.pl

Logowanie
Login:
Hasło:
Zarejestruj

Torrent

Buka - Pierwsza miłość *2011* [720p] [.mp4]

Format : MPEG-4
Format profile : Base Media / Version 2
Codec ID : mp42
File size : 48.1 MiB
Duration : 3mn 3s
Overall bit rate : 2 194 Kbps
Encoded date : UTC 2011-09-09 13:40:02
Tagged date : UTC 2011-09-09 13:40:02
gsst : 0
gstd : 183920
gssd : BD5F15806HH1326148374233312
gshh : youtube.com

Video
ID : 1
Format : AVC
Format/Info : Advanced Video Codec
Format profile : High@L3.1
Format settings, CABAC : Yes
Format settings, ReFrames : 1 frame
Format settings, GOP : M=1, N=60
Codec ID : avc1
Codec ID/Info : Advanced Video Coding
Duration : 3mn 3s
Bit rate mode : Variable
Bit rate : 2 045 Kbps
Maximum bit rate : 4 684 Kbps
Width : 1 280 pixels
Height : 720 pixels
Display aspect ratio : 16:9
Frame rate mode : Constant
Frame rate : 25.000 fps
Color space : YUV
Chroma subsampling : 4:2:0
Bit depth : 8 bits
Scan type : Progressive
Bits/(Pixel*Frame) : 0.089
Stream size : 44.8 MiB (93%)
Tagged date : UTC 2011-09-09 13:40:03

Audio
ID : 2
Format : AAC
Format/Info : Advanced Audio Codec
Format profile : LC
Codec ID : 40
Duration : 3mn 3s
Bit rate mode : Variable
Bit rate : 144 Kbps
Maximum bit rate : 259 Kbps
Channel(s) : 2 channels
Channel positions : Front: L R
Sampling rate : 44.1 KHz
Compression mode : Lossy
Stream size : 3.18 MiB (7%)



http://www.youtube.com/watch?v=Q1R1e7h74lc

  • Dodano: 2012-01-10
  • Ostatnia aktualizacja:
    2013-12-29
  • Wstawił:
    wezyr46 w torrenty.org
  • Gatunek: Teledyski


  • Rozmiar: 48.11 MB
  • Seedów: ??
  • Peerów: 1
  • Pobrano: 27
  • Komentarze: 0
  • Pobierz torrent
  •  
  • Zgłoś problem
  • Buka - Pierwsza miłość (official video) HD_(720p).mp4(48.11 MB)
Pliki:
  • http://tracker.torrenty.org:6969/announce
Tracker:

Komentarze

Zaloguj się lub zarejestruj, by mieć możliwość dodawania komentarzy.

Ten torrent nie został jeszcze skomentowany. Dodaj pierwszy komentarz.

Popularne frazy

Southland Sezon 1 lektor Sims balanga Cyberstalker Windows 7 all Szklana pułapka 4 Star wars battlefront pc Gol iii Ivana sugar Manual mazda 6 Chocolate In The Booty Old 60 Adobe illustrator cc Playboy 1995 Couples retreat Photo 5.5 Richard Burns Tranny lingerie Va dance hits The right kind Na skraju jutra pl Symulator samochodu Caza guiris 4 Podrywacze blow job e105 Brave heart The Amazing Spider Man 2 Christv The soldier Smakosz 2 Resident evil revelations 2 A single man Dracula historia nieznana pl The zombie king Funny bunny Black mp4 The 100 pl Fabryka snow Sims 3 supernatural