Torrenty.pl

Logowanie
Login:
Hasło:
Zarejestruj

Torrent

Zbroja Boga 3: Chiński Zodiak - Armour of God III: Chinese Zodiac (2012) [BDRip.x264.HO U.AC3][Napisy PL][Chinese]

Filmy » 3D

http://imagesup.org/images11/1363223379-3d.jpg

Uwaga film w wersji 3D HO/U !!!!

The file containing - sample!!!
Plik zawiera - sample !!!

gatunek: Akcja
produkcja: Chiny, Hongkong
premiera: 12 grudnia 2012 (świat)
reżyseria: Jackie Chan
scenariusz: Jackie Chan
zdjęcia: Man-Ching Ng
czas: 01:55:51

Opis:

A man searches the world for a set of mystic artifacts
- 12 bronze heads of the animals from the Chinese zodiac.

Grupa złodziei pod wodzą Asian Hawka kradnie unikalne dzieła
sztuki, które później są licytowane na aukcjach. W pewnym okresie
nastąpił popyt na chińskie artefakty. Asian Hawk i jego grupa
Postanawia na tym zarobić.

Mamy w tym filmie dużo akcji, pojedynków, humoru i też troszkę dialogów.
Jackie Chan nadal we wspaniałej formie.

http://imagesup.org/images11/1363223465-ale132013-03-14-02h.jpg
http://imagesup.org/images11/1363223498-ale132013-03-14-02h.jpg
http://imagesup.org/images11/1363223520-ale132013-03-14-02h.jpg

Obsada:

Jackie Chan........."Asian Hawk"
Sang-woo Kwon.......Simon
Xingtong Yao........Coco
Laura Weissbecker...Katherine

Dane Techniczne:

Chinese Zodiac 3D (2012) -alE13.mkv
Format : Matroska
Format version : Version 4 / Version 2
File size : 2.78 GiB
Duration : 2h 2mn
Overall bit rate : 3 264 Kbps
Movie name : Chinese Zodiac 3D (2012) -alE13
Encoded date : UTC 2013-03-14 00:59:25
Writing application : mkvmerge v6.1.0
Writing library : Lavf52.94.0

Video
ID : 1
Format : AVC
Format/Info : Advanced Video Codec
Format profile : Main@L4.0
Format settings, CABAC : Yes
Format settings, ReFrames : 2 frames
Codec ID : V_MPEG4/ISO/AVC
Duration : 2h 2mn
Bit rate : 3 000 Kbps
Width : 1 920 pixels
Height : 1 080 pixels
Display aspect ratio : 16:9
Frame rate mode : Constant
Frame rate : 24.000 fps
Color space : YUV
Chroma subsampling : 4:2:0
Bit depth : 8 bits
Scan type : Progressive
Bits/(Pixel*Frame) : 0.060
Stream size : 2.45 GiB (88%)
Writing library : x264 core 112 r1834 a51816a

Audio
ID : 2
Format : AC-3
Format/Info : Audio Coding 3
Mode extension : CM (complete main)
Format settings, Endianness : Big
Codec ID : A_AC3
Duration : 2h 2mn
Bit rate mode : Constant
Bit rate : 320 Kbps
Channel(s) : 6 channels
Channel positions : Front: L C R, Side: L R, LFE
Sampling rate : 48.0 KHz
Bit depth : 16 bits
Compression mode : Lossy
Stream size : 279 MiB (10%)
Title : Chinese Zodiac 3D (2012) -alE13
Language : Chinese


Text
ID : 3
Format : VobSub
Muxing mode : zlib
Codec ID : S_VOBSUB
Codec ID/Info : The same subtitle format used on DVDs
Title : Chinese Zodiac 3D (2012) -alE13
Language : Polish

Dane Techniczne:

Chinese Zodiac 3D (2012) -alE13 (1).mkv
Format : Matroska
Format version : Version 4 / Version 2
File size : 2.78 GiB
Duration : 2h 2mn
Overall bit rate : 3 264 Kbps
Movie name : Chinese Zodiac 3D (2012) -alE13
Encoded date : UTC 2013-03-14 00:59:25
Writing application : mkvmerge v6.1.0 ('Old Devil') built on Mar 2 2013 14:32:37
Writing library : Lavf52.94.0

Video
ID : 1
Format : AVC
Format/Info : Advanced Video Codec
Format profile : Main@L4.0
Format settings, CABAC : Yes
Format settings, ReFrames : 2 frames
Codec ID : V_MPEG4/ISO/AVC
Duration : 2h 2mn
Bit rate : 3 000 Kbps
Width : 1 920 pixels
Height : 1 080 pixels
Display aspect ratio : 16:9
Frame rate mode : Constant
Frame rate : 24.000 fps
Color space : YUV
Chroma subsampling : 4:2:0
Bit depth : 8 bits
Scan type : Progressive
Bits/(Pixel*Frame) : 0.060
Stream size : 2.45 GiB (88%)
Writing library : x264 core 112 r1834 a51816a

Audio
ID : 2
Format : AC-3
Format/Info : Audio Coding 3
Mode extension : CM (complete main)
Format settings, Endianness : Big
Codec ID : A_AC3
Duration : 2h 2mn
Bit rate mode : Constant
Bit rate : 320 Kbps
Channel(s) : 6 channels
Channel positions : Front: L C R, Side: L R, LFE
Sampling rate : 48.0 KHz
Bit depth : 16 bits
Compression mode : Lossy
Stream size : 279 MiB (10%)
Title : Chinese Zodiac 3D (2012) -alE13
Language : Chinese

Text
ID : 3
Format : VobSub
Muxing mode : zlib
Codec ID : S_VOBSUB
Codec ID/Info : The same subtitle format used on DVDs
Title : Chinese Zodiac 3D (2012) -alE13
Language : Polish

  • Dodano: 2013-03-14
  • Ostatnia aktualizacja:
    8 mies. temu
  • Język:
  • Wstawił:
    ale13 w torrenty.org
  • Gatunek: Akcja


  • Rozmiar: 2.82 GB
  • Seedów: 0
  • Peerów: 0
  • Pobrano: 12
  • Komentarze: 0
  • Pobierz
  • Pobierz torrent
  • Zgłoś problem
Galeria:
  • Chinese Zodiac(2012) -alE13_pl.sub(12.07 MB)
  • Chinese Zodiac(2012) -alE13_pl.srt(124.55 kB)
  • Subs.Eng.Full-ChineseZodiac(3D)2012.halfOU(Ash61).srt(123.51 kB)
  • Chinese Zodiac(2012) -alE13_pl.idx(89.68 kB)
  • Chinese Zodiac 3D (2012) -alE13 (1).mkv(2.78 GB)
  • sample.mkv(28.05 MB)
  • 1.jpg(604.53 kB)
  • alE132013-03-14-02h08m37s104.jpg(264.27 kB)
  • alE132013-03-14-02h04m57s207.jpg(187.55 kB)
  • alE132013-03-14-02h05m38s117.jpg(178.2 kB)
  • 0kładka.jpg(155.1 kB)
  • 3D.jpg(85.51 kB)
  • alE132013-03-14-02h07m03s203.jpg(84.03 kB)
  • alE132013-03-14-02h06m51s58.jpg(83.03 kB)
  • Torrent downloaded from alE13 torrents at BTScene.org.txt(120 B)
Pliki:
  • http://fr33dom.h33t.com:3310/announce
  • http://exodus.desync.com:6969/announce
  • udp://tracker.openbittorrent.com:80/announce
  • udp://tracker.publicbt.com:80/announce
Tracker:

Komentarze

Zaloguj się lub zarejestruj, by mieć możliwość dodawania komentarzy.

Ten torrent nie został jeszcze skomentowany. Dodaj pierwszy komentarz.